• Estreno|2018|Sicario 2|1080p|GD-1F-ZS-MG|FllorTV | Upgrade (2018) | Watch movie
gynfo.com - The Largest Bittorent System Login   |    Register
Latest Articles
Most searched
Hot torrents
Movie Torrents
View Torrent Info: Extinction (2018) [720p] [YTS] [YIFY]
View Torrent Info: Parmanu: The Story of Pokhran (2018) [720p] [YTS] [YIFY]
View Torrent Info: Our House (2018) [720p] [YTS] [YIFY]
View Torrent Info: Breaking In (2018) [720p] [YTS] [YIFY]
View Torrent Info: Breaking In (2018) [720p] [YTS] [YIFY]
View Torrent Info: Okja (2017) [720p] [YTS] [YIFY]
View Torrent Info: Apocalypto (2006) [720p] [YTS] [YIFY]
View Torrent Info: The Row (2018) [720p] [YTS] [YIFY]
View Torrent Info: Kung Fu Yoga (2017) [720p] [YTS] [YIFY]
View Torrent Info: Off the Menu (2018) [720p] [YTS] [YIFY]
Hot torrents
TV Torrents
View Torrent Info: The.100.S05E11.HDTV.x264-SVA[eztv]
View Torrent Info: Suits.S08E02.HDTV.x264-KILLERS[eztv]
View Torrent Info: Marvels.Cloak.and.Dagger.S01E09.WEB.x264-TBS[eztv]
View Torrent Info: Elementary.S06E12.HDTV.x264-KILLERS[eztv]
View Torrent Info: Condor.S01E07.WEBRip.x264-PBS[eztv]
View Torrent Info: Castle.Rock.S01E01.WEBRip.x264-TBS[eztv]
View Torrent Info: Quantico.S03E12.HDTV.x264-SVA[eztv]
View Torrent Info: MasterChef.Australia.S10E56.HDTV.x264-SPC[eztv]
View Torrent Info: Castle.Rock.S01E02.WEBRip.x264-TBS[eztv]
View Torrent Info: Killjoys.S04E02.HDTV.x264-KILLERS[eztv]
gynfo.com > Categories > Movies torrents > h.264/x264 torrents


Browse Movies torrents

Rideshare 2018 HDRip x264 AAC [MW] torrent



Download torrent: Download Rideshare 2018 HDRip x264 AAC [MW] torrent Magnet link Bookmark Torrent: Rideshare 2018 HDRip x264 AAC [MW] Rideshare 2018 HDRip x264 AAC [MW] torrent | if not working, try instead: Magnet Link
Info hash: 7E201F811CEF9B9A42CF89B00693DBEC433D2CA4
Category: Categories > Movies torrents > h.264/x264 torrents
Trackers:
17    View all torrent trackers >
Health:
 seeds: 0 ,  leechers: 0 |  Update >
Torrent language:  
Total Size: 773.60 MB
Torrent status: Added by trusted uploader Added by trusted uploader Trusted Uploader Site Friend Superman Sun
Uploader: Trusted Uploader Site Friend Superman Sun
Torrent added: 2018-04-17 07:59:10
 

Download Rideshare 2018 HDRip x264 AAC [MW] torrent if not working, try downloading torrent using Download Rideshare 2018 HDRip x264 AAC [MW] via Magnet Link




Torrent Description





General
Format : Matroska
Format version : Version 4 / Version 2
File size : 774 MiB
Duration : 1 h 42 min
Overall bit rate : 1 059 kb/s

Video
ID : 1
Format : AVC
Format/Info : Advanced Video Codec
Format profile : [email protected]
Format settings : CABAC / 4 Ref Frames
Format settings, CABAC : Yes
Format settings, RefFrames : 4 frames
Codec ID : V_MPEG4/ISO/AVC
Duration : 1 h 42 min
Bit rate : 1 000 kb/s
Width : 714 pixels
Height : 304 pixels
Display aspect ratio : 2.35:1
Frame rate mode : Constant
Frame rate : 23.976 (24000/1001) FPS
Color space : YUV
Chroma subsampling : 4:2:0
Bit depth : 8 bits
Scan type : Progressive
Bits/(Pixel*Frame) : 0.192
Stream size : 727 MiB (94%)
Writing library : x264 core 155 r2893 b00bcaf
Default : Yes
Forced : No

Audio
ID : 2
Format : AAC
Format/Info : Advanced Audio Codec
Format profile : HE-AAC / LC
Format settings : Explicit
Codec ID : A_AAC-2
Duration : 1 h 42 min
Bit rate : 62.7 kb/s
Channel(s) : 2 channels
Channel positions : Front: L R
Sampling rate : 48.0 kHz / 24.0 kHz
Frame rate : 23.438 FPS (1024 SPF)
Compression mode : Lossy
Stream size : 45.8 MiB (6%)
Default : Yes
Forced : No














#moviezworldz -> To avoid fakes, ALWAYS check that the torrent was added on gynfo.com by moviezworldz

http://gynfo.com/



Download Rideshare 2018 HDRip x264 AAC [MW] torrent


Comments (please add your comment)
No comments



Home - Browse Torrents - Upload Torrent - Stat - Forum - FAQ - Login
gynfo.com is in compliance with copyrights
2006-2018 gynfo.com