secret superstar hindi 2017
Children of Ether
gynfo.com - The Largest Bittorent System Login   |    Register
Latest Articles
Most searched
Hot torrents
Movie Torrents
Hot torrents
TV Torrents
View Torrent Info: Arrow.S06E18.HDTV.x264-SVA[eztv]
View Torrent Info: Lucifer.S03E20.HDTV.x264-KILLERS[eztv]
View Torrent Info: Fear.the.Walking.Dead.S04E01.HDTV.x264-SVA[eztv]
View Torrent Info: Lethal.Weapon.S02E18.WEB.x264-TBS[eztv]
View Torrent Info: Supernatural.S13E18.HDTV.x264-SVA[eztv]
View Torrent Info: Supergirl.S03E14.HDTV.x264-SVA[eztv]
View Torrent Info: Young.Sheldon.S01E18.HDTV.x264-SVA[eztv]
View Torrent Info: Billions.S03E04.WEBRip.x264-PBS[eztv]
View Torrent Info: Black.Lightning.S01E12.HDTV.x264-SVA[eztv]
View Torrent Info: Brooklyn.Nine-Nine.S05E16.WEB.x264-TBS[eztv]
gynfo.com > Categories > Movies torrents > Divx/Xvid torrents


Browse Movies torrents

Black Panther.2018.720p.HC.HDTC.AAC.LLG torrent



Download torrent: Download Black Panther.2018.720p.HC.HDTC.AAC.LLG torrent Magnet link Bookmark Torrent: Black Panther.2018.720p.HC.HDTC.AAC.LLG Black Panther.2018.720p.HC.HDTC.AAC.LLG torrent | if not working, try instead: Magnet Link
Info hash: 52238176C7B17F78EF3552BBE48B67329E747AE7
Category: Categories > Movies torrents > Divx/Xvid torrents
Trackers:
3    View all torrent trackers >
Health:
 seeds: 48 ,  leechers: 11 |  Update >
Torrent language:  
Total Size: 877.30 MB
Torrent status: Added by trusted uploader Added by trusted uploader Trusted Uploader Site Friend Superman Sun
Uploader: Trusted Uploader Site Friend Superman Sun
Torrent added: 2018-04-17 08:30:07
 

Download Black Panther.2018.720p.HC.HDTC.AAC.LLG torrent if not working, try downloading torrent using Download Black Panther.2018.720p.HC.HDTC.AAC.LLG via Magnet Link




Torrent Description





******************************Thumbnail:**********************



******************************Screenshots:********************

Screenshot 1

Screenshot 2

Screenshot 3

Screenshot 4

Screenshot 5

Screenshot 6

Screenshot 7

Screenshot 8

Screenshot 9

Screenshot 0

**************************************************************

Complete name : Black Panther.2018.720p.HC.HDTC.AAC.LLG.mp4
Format : MPEG-4
Format profile : Base Media
Codec ID : isom (isom/iso2/avc1/mp41)
File size : 871 MiB
Duration : 2 h 6 min
Overall bit rate : 961 kb/s
Writing application : Lavf57.56.101

Video
ID : 1
Format : AVC
Format/Info : Advanced Video Codec
Format profile : [email protected]
Format settings : CABAC / 4 Ref Frames
Format settings, CABAC : Yes
Format settings, RefFrames : 4 frames
Codec ID : avc1
Codec ID/Info : Advanced Video Coding
Duration : 2 h 6 min
Bit rate : 900 kb/s
Width : 1 280 pixels
Height : 480 pixels
Display aspect ratio : 2.667
Frame rate mode : Constant
Frame rate : 25.000 FPS
Color space : YUV
Chroma subsampling : 4:2:0
Bit depth : 8 bits
Scan type : Progressive
Bits/(Pixel*Frame) : 0.059
Stream size : 808 MiB (93%)

Audio
ID : 2
Format : AAC
Format/Info : Advanced Audio Codec
Format profile : LC
Codec ID : mp4a-40-2
Duration : 2 h 6 min
Bit rate mode : Constant
Bit rate : 64.3 kb/s
Channel(s) : 2 channels
Channel positions : Front: L R
Sampling rate : 48.0 kHz
Frame rate : 46.875 FPS (1024 SPF)
Compression mode : Lossy
Stream size : 58.3 MiB (7%)
Language : English
Default : Yes
Alternate group : 1



#LifeLongg -> To avoid fakes, ALWAYS check that the torrent was added on gynfo.com by LifeLongg

http://gynfo.com/



Download Black Panther.2018.720p.HC.HDTC.AAC.LLG torrent


Comments (please add your comment)
No comments



Home - Browse Torrents - Upload Torrent - Stat - Forum - FAQ - Login
gynfo.com is in compliance with copyrights
2006-2018 gynfo.com